訪客留言

購物商店

軔體下載

產品FAQ

註冊MAC

GplayNAS
Q5 Pro V2 播放軟體問題 - 卡巴熊論壇
  卡巴熊 - HIMEDIA影音產品討論多媒體播放器綜合討論Q5 Pro V2 播放軟體問題

發表新主題   回復帖子  
本主題瀏覽 735 次、回覆 5
 報告本帖 瀏覽上一篇主題 瀏覽下一篇主題
 主題: [卡巴熊] Q5 Pro V2 播放軟體問題 下到樓底 

akimine
Q5 PRO V2

常來勳章元老勳章
考勤:81天前來過
樓主1

管理員 好!!
請問播放軟體問題, 以前的Q10  3D4K播放某些較新的影片檔案時畫面嚴重破格,
這裡的回覆是格式太新還是怎了,我忘了
當時只好添購了 Q5 Pro V2
最近收集了部分舊片也是會破格
如以下截圖的影片格式說明
但是嘗試安裝了MX Player Pro 來播放就完全正常了
不知Q5 Pro V2 播放軟體是否有改善的機會?
畢竟內建的播放軟體操作只要遙控器就可以快速切換字幕,音軌 方便許多


〔本帖由 akimine 最後編輯於 16/2021 4:42〕



本帖發於: 2021-06-16  回首頁 | 回本版回樓頂

aszcc

回復勳章常來勳章持久勳章管理勳章元老勳章
職位:管理員
考勤:昨天來過
---------------
★排名:(不參予)
沙發2

 引用

( 原文由 akimine 發表於 16/2021 4:42 )
你提供的影片INFO 不詳細 , 解 AVC1 是沒問題的
我想該影片應該是 h10p h.264  10bits  , 
Q10 4K3D 或 Q5PROV2 硬解 H10P 都會有 色暈 或 色塊 , 

全球唯一支援  h10p h.264  10bits  硬解只有 Rockchip  RK3229
這種若有媒體中心硬解的話 都能正常播放
https://shopee.tw/search?keyword=rk3229

這個播會破格 , 只能第三方軟解播放 , 其它都無解!

本帖發於: 2021-06-16  回首頁 | 回本版回樓頂

akimine
Q5 PRO V2

常來勳章元老勳章
考勤:81天前來過
板凳3

以下為格式工廠的INFO, 我轉成 H245 放回去播放就正常了, 只是一樣在 Q5 Pro V2上播放, 內建Player 播會破格,有色塊,
但在安裝的第三方Player (MX Player)播放就正常,是否跟內建的Player 的解碼器有關呢?

General
Unique ID                                : 211299232948333724490686713625132491206 (0x9EF6C082D16B93FE9F4157ACE75961C6)
Complete name                            : Z:/多媒體檔案/外片-動畫/日本-動畫電影/蠟筆小新劇場版/【2006】14蠟筆小新:呼喚傳說!跳舞吧!朋友!.mkv
Format                                   : Matroska
Format version                           : Version 4
File size                                : 969 MiB
Duration                                 : 1 h 31 min
Overall bit rate                         : 1 476 kb/s
Encoded date                             : UTC 2010-02-22 21:41:31
Writing application                      : mkvmerge v5.9.0 ('On The Loose') built on Dec  9 2012 15:37:01
Writing library                          : libebml v1.3.0 + libmatroska v1.4.0


Video
ID                                       : 1
Format                                   : AVC
Format/Info                              : Advanced Video Codec
Format profile                           : High 10@L3
Format settings                          : CABAC / 4 Ref Frames
Format settings, CABAC                   : Yes
Format settings, Reference frames        : 4 frames
Codec ID                                 : V_MPEG4/ISO/AVC
Duration                                 : 1 h 31 min
Bit rate                                 : 999 kb/s
Width                                    : 720 pixels
Height                                   : 480 pixels
Display aspect ratio                     : 1.85:1
Frame rate mode                          : Constant
Frame rate                               : 23.976 (24000/1001) FPS
Color space                              : YUV
Chroma subsampling                       : 4:2:0
Bit depth                                : 10 bits
Scan type                                : Progressive
Bits/(Pixel*Frame)                       : 0.121
Stream size                              : 656 MiB (68%)
Writing library                          : x264 core 129 r2230 1cffe9f
Encoding settings                        : cabac=1 / ref=4 / deblock=1:0:0 / analyse=0x3:0x133 / me=umh / subme=7 / psy=1 / psy_rd=1.00:0.00 / mixed_ref=1 / me_range=32 / chroma_me=1 / trellis=2 / 8x8dct=1 / cqm=0 / deadzone=21,11 / fast_pskip=0 / chroma_qp_offset=-2 / threads=3 / lookahead_threads=1 / sliced_threads=0 / nr=0 / decimate=1 / interlaced=0 / bluray_compat=0 / constrained_intra=0 / bframes=6 / b_pyramid=2 / b_adapt=2 / b_bias=0 / direct=3 / weightb=1 / open_gop=0 / weightp=2 / keyint=240 / keyint_min=23 / scenecut=40 / intra_refresh=0 / rc_lookahead=40 / rc=crf / mbtree=1 / crf=16.0 / qcomp=0.60 / qpmin=10 / qpmax=51 / qpstep=4 / ip_ratio=1.40 / aq=1:1.00
Language                                 : Japanese
Default                                  : Yes
Forced                                   : No


Audio
ID                                       : 2
Format                                   : AC-3
Format/Info                              : Audio Coding 3
Commercial name                          : Dolby Digital
Codec ID                                 : A_AC3
Duration                                 : 1 h 31 min
Bit rate mode                            : Constant
Bit rate                                 : 448 kb/s
Channel(s)                               : 6 channels
Channel layout                           : L R C LFE Ls Rs
Sampling rate                            : 48.0 kHz
Frame rate                               : 31.250 FPS (1536 SPF)
Compression mode                         : Lossy
Stream size                              : 294 MiB (30%)
Language                                 : Japanese
Service kind                             : Complete Main
Default                                  : Yes
Forced                                   : No



本帖發於: 2021-06-16  回首頁 | 回本版回樓頂

aszcc

回復勳章常來勳章持久勳章管理勳章元老勳章
職位:管理員
考勤:昨天來過
---------------
★排名:(不參予)
4

 引用

( 原文由 akimine 發表於 16/2021 5:58 )

這就是 H10P ,
非標準編螞規範  , 只能軟解播放...
Format profile : High 10@L3

媒體中心播放都是跑硬解 ,
芯片DSP 裡面沒有 H.264  YUV10bits 這種..只有  HEVC 10bits



本帖發於: 2021-06-16  回首頁 | 回本版回樓頂

akimine
Q5 PRO V2

常來勳章元老勳章
考勤:81天前來過
5

謝謝管理員的協助說明
希望有日海美迪的產品的內建播放器也能支援遇到不能硬解的檔案,以軟解的功能來輔助播放囉

本帖發於: 2021-06-16  回首頁 | 回本版回樓頂

aszcc

回復勳章常來勳章持久勳章管理勳章元老勳章
職位:管理員
考勤:昨天來過
---------------
★排名:(不參予)
6

 引用

( 原文由 akimine 發表於 16/2021 10:59 )

芯片只有 全硬解 , 全軟解 , Android Google MAX解 , 三種喔!

本帖發於: 2021-06-16  回首頁 | 回本版回樓頂



Copyright (C) 2002-2021  卡巴熊 - HIMEDIA All Rights Reserved