訪客留言

購物商店

軔體下載

產品FAQ

註冊MAC

GplayNAS
AXZ96 機型簡介 - 卡巴熊論壇
  卡巴熊 - HIMEDIA影音產品討論Amlogic AXZ95 96AXZ96 機型簡介

發表新主題   回復帖子  
本主題瀏覽 13729 次、回覆 186
 報告本帖 瀏覽上一篇主題 瀏覽下一篇主題
 主題: [AXZ95-96] AXZ96 機型簡介 下到樓底 

aszcc

回復勳章常來勳章持久勳章管理勳章元老勳章
職位:管理員
考勤:線上
---------------
★排名:(不參予)
181

 引用

( 原文由 gunming 發表於 10/2022 7:04 )

看不出是做了甚麼設定產生的問題, 

你可以到 https://ka8.hk/book.asp 聯絡我們客服 , 將機器寄過來重刷

本帖發於: 2022-06-10  回首頁 | 回本版回樓頂

chiang111
Q5-4K3D

常來勳章元老勳章
考勤:3天前來過
---------------
★排名:第21
182

某部影片有聲音無影像,這是為何

本帖發於: 2022-06-22  回首頁 | 回本版回樓頂

aszcc

回復勳章常來勳章持久勳章管理勳章元老勳章
職位:管理員
考勤:線上
---------------
★排名:(不參予)
183

 引用

( 原文由 chiang111 發表於 22/2022 7:23 )

哪一部?

有可能是 Android 內部的 解碼庫 崩潰了 , 一般都是重開機後正常

本帖發於: 2022-06-22  回首頁 | 回本版回樓頂

chiang111
Q5-4K3D

常來勳章元老勳章
考勤:3天前來過
---------------
★排名:第21
184

我試過了,還是一樣有聲音無影像,其他的片是可以,下面是他的影片格式


Format                         : Matroska
Format version                 : Version 4
File size                      : 11.4 GiB
Duration                       : 1 h 51 min
Overall bit rate               : 14.6 Mb/s
Writing application            : mkvmerge v49.0.0 ('Sick Of Losing Soulmates') 64-bit
Writing library                : libebml v1.4.0 + libmatroska v1.6.1


Video
ID                             : 1
Format                         : HEVC
Format/Info                    : High Efficiency Video Coding
Format profile                 : Main 10@L5@Main
HDR format                     : SMPTE ST 2094 App 4, Version 1, HDR10+ Profile B compatible
Codec ID                       : V_MPEGH/ISO/HEVC
Duration                       : 1 h 51 min
Bit rate                       : 13.5 Mb/s
Width                          : 3 840 pixels
Height                         : 2 160 pixels
Display aspect ratio           : 16:9
Frame rate mode                : Constant
Frame rate                     : 23.976 (24000/1001) FPS
Color space                    : YUV
Chroma subsampling             : 4:2:0 (Type 2)
Bit depth                      : 10 bits
Bits/(Pixel*Frame)             : 0.068
Stream size                    : 10.5 GiB (93%)
Default                        : Yes
Forced                         : No
Color range                    : Limited
Color primaries                : BT.2020
Transfer characteristics       : PQ
Matrix coefficients            : BT.2020 non-constant
Mastering display color primar : Display P3
Mastering display luminance    : min: 0.0001 cd/m2, max: 1000 cd/m2


Audio
ID                             : 2
Format                         : E-AC-3 JOC
Format/Info                    : Enhanced AC-3 with Joint Object Coding
Commercial name                : Dolby Digital Plus with Dolby Atmos
Codec ID                       : A_EAC3
Duration                       : 1 h 51 min
Bit rate mode                  : Constant
Bit rate                       : 768 kb/s
Channel(s)                     : 6 channels
Channel layout                 : L R C LFE Ls Rs
Sampling rate                  : 48.0 kHz
Frame rate                     : 31.250 FPS (1536 SPF)
Compression mode               : Lossy
Stream size                    : 614 MiB (5%)
Language                       : English
Service kind                   : Complete Main
Default                        : Yes
Forced                         : No
Complexity index               : 16
Number of dynamic objects      : 15
Bed channel count              : 1 channel
Bed channel configuration      : LFE


Text #1
ID                             : 3
Format                         : UTF-8
Codec ID                       : S_TEXT/UTF8
Codec ID/Info                  : UTF-8 Plain Text
Title                          : English
Language                       : English
Default                        : No
Forced                         : No


Text #2
ID                             : 4
Format                         : UTF-8
Codec ID                       : S_TEXT/UTF8
Codec ID/Info                  : UTF-8 Plain Text
Title                          : English [SDH]
Language                       : English
Default                        : No
Forced                         : No

本帖發於: 2022-06-23  回首頁 | 回本版回樓頂

aszcc

回復勳章常來勳章持久勳章管理勳章元老勳章
職位:管理員
考勤:線上
---------------
★排名:(不參予)
185

 引用

( 原文由 chiang111 發表於 23/2022 4:32 )

這是 HDR10+ ,
你的電視是否支援 HDR10+ 信號呢?

本帖發於: 2022-06-23  回首頁 | 回本版回樓頂

chiang111
Q5-4K3D

常來勳章元老勳章
考勤:3天前來過
---------------
★排名:第21
186

支援阿,我的電視是QLED 4K Q60A

本帖發於: 2022-06-23  回首頁 | 回本版回樓頂

aszcc

回復勳章常來勳章持久勳章管理勳章元老勳章
職位:管理員
考勤:線上
---------------
★排名:(不參予)
187

 引用

( 原文由 chiang111 發表於 23/2022 5:59 )

從 MEDIAINFO 看不出無法輸出的問題 , 

找其它源下載試試

本帖發於: 2022-06-23  回首頁 | 回本版回樓頂



Copyright (C) 2002-2022  卡巴熊 - HIMEDIA All Rights Reserved