訪客留言
  香港卡巴熊論壇 FAQ教學說明

海美迪 AndroidAndorid KODIRealtek新手Realtek IMS操作
1982015.09.16一般用戶可瀏覽設定AP基地台最佳頻段All
1972015.08.14一般用戶可瀏覽軔體強制升級說明All
1942015.07.25一般用戶可瀏覽如何使用翻進翻出修改 HOSTSAll
1932015.07.25一般用戶可瀏覽接小烏龜 ATU-R 如何使用 PPPOE 播接All
1922015.07.25一般用戶可瀏覽修改所有網路DNS看優酷土豆All
1912015.07.25一般用戶可瀏覽安裝Unblock Youku PAC代理服務All
1892015.07.25一般用戶可瀏覽如何安裝Supersu root管理器All
1882015.07.25一般用戶可瀏覽如何微調ui畫面為滿屏All
1832014.12.05一般用戶可瀏覽3798C PK 3798MAll
1812014.10.08一般用戶可瀏覽Himedia Q15 Plus 海外製訂版All
1712014.07.04一般用戶可瀏覽修改預設綁定的 海美迪啟動器All
1792014.07.04一般用戶可瀏覽大陸影音視頻應用海外IP限制All
1782014.07.03一般用戶可瀏覽Himedia Hi3798C 3D 4K 影音劇院Hi3798C
1802014.07.02一般用戶可瀏覽HD600A Quad 3798MAll
1762014.04.29一般用戶可瀏覽飛視瀏覽器 三內核 Android TV版All
1752014.04.27一般用戶可瀏覽UC瀏覽器 雙內核 Android TV版All
1742014.04.02一般用戶可瀏覽360雲盤操作 及 360TVAll
1732014.03.22一般用戶可瀏覽Android Box 透過 MirrorOP 傳屏All
1722014.03.18一般用戶可瀏覽安裝 ISP Proxy 及 百度雲All
1772014.03.09一般用戶可瀏覽2160p 水鴨-3798C解碼超高碼All
1702014.03.08一般用戶可瀏覽好玩好用的 Google TV 1.76All
1692014.03.07一般用戶可瀏覽手動安裝 YPChen IMS 回歸 RealtekAll
1672014.03.04一般用戶可瀏覽SSH 相關指令 及內部資訊All
1632014.02.27一般用戶可瀏覽如何使用MXPlayer播放影片(媒體中心)All
1622014.02.27一般用戶可瀏覽Android Adobe Flash 網頁瀏覽All
1582014.02.26一般用戶可瀏覽如何將USB隨身碟設為系統存放空間All
1572014.02.26一般用戶可瀏覽如何由USB隨身碟安裝APKAll
1592014.02.26一般用戶可瀏覽Android 使用有線網路連線及熱點All
1602014.02.26一般用戶可瀏覽如何修改影片播放的字體進階
1612014.02.26一般用戶可瀏覽Hi3718 Q3Q5Q6 eMMC XBMC進階
1552014.02.25一般用戶可瀏覽畫面微調 及 輸出設定All
1542014.02.25一般用戶可瀏覽Himedia 5.1 DownmixAll
1532014.02.25一般用戶可瀏覽Himedia 修改預設輸入法All
1522014.02.25一般用戶可瀏覽Himedia AirPlay 及 DLNA 設定All
1512014.02.25一般用戶可瀏覽Himedia HiQ H7 A31sAll
1562014.02.25一般用戶可瀏覽查詢核心版本號All
1502014.02.23一般用戶可瀏覽Himedia Q雙核All
1662014.02.22一般用戶可瀏覽Himedia Support XBMC 3D playAll
1682014.02.04一般用戶可瀏覽Q5II eMMC / Q6II eMMCAll
1652014.01.01一般用戶可瀏覽Q5/Q6 II 裸接 SATAAll
1452013.09.23一般用戶可瀏覽BD-ISO,3D BD-ISO 藍光進階選單Q5-II
1432013.09.13一般用戶可瀏覽Q5-II 藍光原盤Q5-II
1332013.01.18一般用戶可瀏覽Android 簡體自動變為繁體Andorid

2160p 水鴨-3798C解碼超高碼All2014.03.09 4590



Youtube Demo
http://www.youtube.com/watch?v=O1r0wIaI46E



水鴨 Bitrate 2160P 60Mbps - 480Mbps
http://pan.baidu.com/s/1pJoHwCV

3840x2160 60fps 2160p
120Mbps 以內順暢 , 120Mbps - 480Mbps 中間卡1-2秒




4096 X 2304 2160P 29.7fps 順暢播完
Format profile                 : Base Media / Version 2
Codec ID                       : mp42
File size                      : 1.03 GiB
Duration                       : 6mn 7s
Overall bit rate mode          : Variable
Overall bit rate               : 24.1 Mbps
Encoded date                   : UTC 2012-08-23 11:48:33
Tagged date                    : UTC 2012-08-23 11:48:33
gsst                           : 0
gstd                           : 367501
gssd                           : B4A7D0642HH1369754731844274
gshh                           : r8---sn-5uaeznek.c.youtube.com
Video
Format                         : AVC
Format/Info                    : Advanced Video Codec
Format profile                 : High@L5.1
Format settings, CABAC         : No
Format settings, ReFrames      : 1 frame
Codec ID                       : avc1
Codec ID/Info                  : Advanced Video Coding
Duration                       : 6mn 7s
Bit rate                       : 23.9 Mbps
Maximum bit rate               : 61.8 Mbps
Width                          : 4 096 pixels
Height                         : 2 304 pixels
Display aspect ratio           : 16:9
Frame rate mode                : Constant
Frame rate                     : 24.000 fps
Color space                    : YUV
Chroma subsampling             : 4:2:0
Bit depth                      : 8 bits
Scan type                      : Progressive
Bits/(Pixel*Frame)             : 0.106
Stream size                    : 1.02 GiB (99%)
Encoded date                   : UTC 1970-01-01 00:00:00
Tagged date                    : UTC 2012-08-23 11:49:32




少女時代 4K2K / 3840X2160  H.264 2160P 順暢播完
Format                         : Matroska
Format version                 : Version 2
File size                      : 2.46 GiB
Duration                       : 3mn 33s
Overall bit rate               : 98.6 Mbps
Writing application            : Lavf51.12.1
Writing library                : Lavf51.12.1
Format                         : AVC
Format/Info                    : Advanced Video Codec
Format profile                 : Baseline@L5.1
Format settings, CABAC         : No
Format settings, ReFrames      : 1 frame
Codec ID                       : V_MPEG4/ISO/AVC
Duration                       : 3mn 33s
Bit rate                       : 96.5 Mbps
Width                          : 3 840 pixels
Height                         : 2 160 pixels
Display aspect ratio           : 16:9
Frame rate mode                : Constant
Frame rate                     : 29.970 fps
Color space                    : YUV
Chroma subsampling             : 4:2:0
Bit depth                      : 8 bits
Scan type                      : Progressive
Bits/(Pixel*Frame)             : 0.388
Stream size                    : 2.40 GiB (98%)
Default                        : Yes
Forced                         : No





Format                         : MPEG-4
Format profile                 : Base Media / Version 2
Codec ID                       : mp42
File size                      : 569 MiB
Duration                       : 3mn 20s
Overall bit rate mode          : Variable
Overall bit rate               : 23.8 Mbps
Encoded date                   : UTC 2013-04-28 23:42:58
Tagged date                    : UTC 2013-04-28 23:42:58
gsst                           : 0
gstd                           : 200573
gssd                           : BADC20804HH1367286908094288
gshh                           : r13---sn-a5m7lnee.c.youtube.com
Format                         : AVC
Format/Info                    : Advanced Video Codec
Format profile                 : High@L5.1
Format settings, CABAC         : No
Format settings, ReFrames      : 1 frame
Codec ID                       : avc1
Codec ID/Info                  : Advanced Video Coding
Duration                       : 3mn 20s
Bit rate                       : 23.6 Mbps
Maximum bit rate               : 57.4 Mbps
Width                          : 3 840 pixels
Height                         : 2 160 pixels
Display aspect ratio           : 16:9
Frame rate mode                : Constant
Frame rate                     : 29.970 fps
Color space                    : YUV
Chroma subsampling             : 4:2:0
Bit depth                      : 8 bits
Scan type                      : Progressive
Bits/(Pixel*Frame)             : 0.095
Stream size                    : 564 MiB (99%)
Tagged date                    : UTC 2013-04-28 23:43:42




支援 HEVC H.265 / X.265 最高 2160P / 支援 Chdbits X.265
Video
Format                         : Matroska
Format version                 : Version 4 / Version 2
Writing application            : mkvmerge v6.6.0
Format                         : HEVC
Format/Info                    : High Efficiency Video Coding
Codec ID                       : V_MPEGH/ISO/HEVC
Bit rate                       : 7 273 Kbps
Width                          : 1 920 pixels
Height                         : 800 pixels
Display aspect ratio           : 2.40:1
Frame rate mode                : Variable
Title                          : 300.Rise.Of.An.Empire.2014.BluRay.1080p.AVC.DTS-HD.MA7.1-CHDBits CRF 18 Slow
Default                        : Yes
Forced                         : No




香港卡巴熊論壇 - 2160p 水鴨-3798C解碼超高碼
卡巴熊 海美迪購物
B302,Zondy Cyber,Cyber-tech Zone,Keyuan Road South,Nanshan Distr Shenzhen, Taiwan 518057 TW
Phone: 8613717041144 Website: http://ka8.hk
香港卡巴熊論壇 - FAQ及軔體下載
卡巴熊 FAQ及軔體下載
B302,Zondy Cyber,Cyber-tech Zone,Keyuan Road South,Nanshan Distr Shenzhen, Taiwan 518057 TW
Phone: 8613717041144 Website: http://ka8.hk

Copyright (C) 2002-2017  香港卡巴熊論壇 All Rights Reserved